Bilqi Forum  
Çakıl Taşları Bölüm 10 – Bölüm 11 Fragman (1,07 Gb 384 Kbps 720*544) [Rip By ASiKaR]

Geri git   Bilqi Forum > > > >

ÖDEVLERİNİZİ BULMAKTA ZORLANIYOMUSUNUZ!

SORUN ANINDA CEVAPLIYALIM.

TÜM SORULARINIZA ANINDA CEVAP VERİLECEKTİR !

Sitemize Üye Olmadan Konulara Cevap Yazabilir Ayrıca Soru Cevap Bölümüne Konu Açabilirsiniz !

Çakıl Taşları Bölüm 10 – Bölüm 11 Fragman (1,07 Gb 384 Kbps 720*544) [Rip By ASiKaR]

Çakıl taşları


Yeni Konu aç Cevapla
 
Seçenekler Stil
Alt 10-29-2010, 17:46   #1
Korax
Android Destek
 
Korax - ait Kullanıcı Resmi (Avatar)
 
Üyelik tarihi: Jan 2008
Yaş: 34
Mesajlar: 21.062
Tecrübe Puanı: 1000
Korax has a reputation beyond reputeKorax has a reputation beyond reputeKorax has a reputation beyond reputeKorax has a reputation beyond reputeKorax has a reputation beyond reputeKorax has a reputation beyond reputeKorax has a reputation beyond reputeKorax has a reputation beyond reputeKorax has a reputation beyond reputeKorax has a reputation beyond reputeKorax has a reputation beyond repute
Korax - MSN üzeri Mesaj gönder
Standart Çakıl Taşları Bölüm 10 – Bölüm 11 Fragman (1,07 Gb 384 Kbps 720*544) [Rip By ASiKaR]

Çakıl Taşları Bölüm 10 – Bölüm 11 Fragman (1,07 Gb 384 Kbps 720*544) [Rip By ASiKaR]


Kod:
General
Complete name : Cakil.Taslari.10.Rip.By.ASiKaR.avi
Format : AVI
Format/Info : Audio Video Interleave
File size : 1.07 GiB
Duration : 1h 45mn
Overall bit rate : 1 461 Kbps
Writing application : VirtualDubMod 1.5.4.1 (build 2178/release)
Writing library : VirtualDubMod build 2178/release

Video
ID : 0
Format : MPEG-4 Visual
Format profile : Advanced Simple@L5
Format settings, BVOP : Yes
Format settings, QPel : No
Format settings, GMC : No warppoints
Format settings, Matrix : Custom
Codec ID : XVID
Codec ID/Hint : XviD
Duration : 1h 45mn
Bit rate : 1 070 Kbps
Width : 720 pixels
Height : 544 pixels
Display aspect ratio : 4:3
Frame rate : 25.000 fps
Color space : YUV
Chroma subsampling : 4:2:0
Bit depth : 8 bits
Scan type : Progressive
Bits/(Pixel*Frame) : 0.109
Stream size : 805 MiB (73%)
Writing library : XviD 1.1.2 (UTC 2006-11-01)

Audio
ID : 1
Format : MPEG Audio
Format version : Version 1
Format profile : Layer 2
Codec ID : 50
Duration : 1h 45mn
Bit rate mode : Constant
Bit rate : 384 Kbps
Channel(s) : 2 channels
Sampling rate : 48.0 KHz
Stream size : 289 MiB (26%)
Alignment : Aligned on interleaves
Interleave, duration : 80 ms (2.00 video frames)
Interleave, preload duration : 504 ms
Hotfile...
http://hotfile.com/dl/71574775/d45a8...part1.rar.html
http://hotfile.com/dl/71571769/c4ccf...part2.rar.html
http://hotfile.com/dl/71574773/beb3b...part3.rar.html
http://hotfile.com/dl/71581914/10cce...part4.rar.html
http://hotfile.com/dl/71571613/269bd...part5.rar.html
http://hotfile.com/dl/71564562/7a167...part6.rar.html
Korax isimli Üye şimdilik offline konumundadır   Alıntı ile Cevapla
Sponsored Links
Cevapla

Bookmarks


Konuyu Toplam 1 Üye okuyor. (0 Kayıtlı üye ve 1 Misafir)
 
Seçenekler
Stil

Yetkileriniz
Sizin Yeni Konu Acma Yetkiniz var yok
Sizin Konu Yanıtlama Yetkiniz var
You may not post attachments
You may not edit your posts

BB code is Açık
Smileler Açık
[IMG] Kodları Açık
HTML-KodlarıKapalı

Gitmek istediğiniz klasörü seçiniz

Benzer Konular
Konu Konuyu Başlatan Forum Cevaplar Son Mesaj
Çakıl Taşları | Bölüm 11 | Dvbrip Xvid | Fileserve Teklink + Hotfile Korax Çakıl taşları 0 10-29-2010 17:45
Çakıl Taşları | Bölüm 13 | Dvbrip Xvid | Fileserve Teklink + Hotfile Korax Çakıl taşları 0 10-29-2010 17:30
Arka Sıradakiler ßölüm 125 ( 1,07 Gb 384 Kbps 720*544 ) [ Rip ßy ASiKaR ] Korax Arka Sıradakiler 0 10-29-2010 15:23
Çakıl Taşları 1.Bölüm Fragmanı Dirtynight Çakıl taşları 0 07-19-2010 22:56
Çakıl taşları neden yuvarlaktır, Yaso Genel Kültür 0 03-11-2009 21:36


Şu Anki Saat: 14:24


İçerik sağlayıcı paylaşım sitelerinden biri olan Bilqi.com Forum Adresimizde T.C.K 20.ci Madde ve 5651 Sayılı Kanun'un 4.cü maddesinin (2).ci fıkrasına göre TÜM ÜYELERİMİZ yaptıkları paylaşımlardan sorumludur. bilqi.com hakkında yapılacak tüm hukuksal Şikayetler doganinternet@hotmail.com ve streetken27@gmail.com dan iletişime geçilmesi halinde ilgili kanunlar ve yönetmelikler çerçevesinde en geç 1 (Bir) Hafta içerisinde bilqi.com yönetimi olarak tarafımızdan gereken işlemler yapılacak ve size dönüş yapacaktır.
Powered by vBulletin® Version 3.8.4
Copyright ©2000 - 2017, Jelsoft Enterprises Ltd.
Search Engine Optimisation provided by DragonByte SEO v2.0.36 (Lite) - vBulletin Mods & Addons Copyright © 2017 DragonByte Technologies Ltd.

Android Rom

Android Oyunlar

Android samsung htc

Samsung Htc

Nokia Windows