Bilqi Forum  
FatmaGül’ün Suçu Ne ? Bölüm 3 (1,07 Gb 256 Kbps 720*544)

Geri git   Bilqi Forum > > > >

Fatmagül,ün Suçu Ne Fatmagül,ün Suçu Ne dizi bölümleri

ÖDEVLERİNİZİ BULMAKTA ZORLANIYOMUSUNUZ!

SORUN ANINDA CEVAPLIYALIM.

TÜM SORULARINIZA ANINDA CEVAP VERİLECEKTİR !

Sitemize Üye Olmadan Konulara Cevap Yazabilir Ayrıca Soru Cevap Bölümüne Konu Açabilirsiniz !

FatmaGül’ün Suçu Ne ? Bölüm 3 (1,07 Gb 256 Kbps 720*544)

Fatmagül,ün Suçu Ne


Yeni Konu aç Cevapla
 
Seçenekler Stil
Alt 10-29-2010, 20:34   #1
Korax
Android Destek
 
Korax - ait Kullanıcı Resmi (Avatar)
 
Üyelik tarihi: Jan 2008
Yaş: 34
Mesajlar: 21.062
Tecrübe Puanı: 1000
Korax has a reputation beyond reputeKorax has a reputation beyond reputeKorax has a reputation beyond reputeKorax has a reputation beyond reputeKorax has a reputation beyond reputeKorax has a reputation beyond reputeKorax has a reputation beyond reputeKorax has a reputation beyond reputeKorax has a reputation beyond reputeKorax has a reputation beyond reputeKorax has a reputation beyond repute
Korax - MSN üzeri Mesaj gönder
Cool FatmaGül’ün Suçu Ne ? Bölüm 3 (1,07 Gb 256 Kbps 720*544)

FatmaGül’ün Suçu Ne ? Bölüm 3 (1,07 Gb 256 Kbps 720*544)


Kod:
General
Complete name : Fatma.Gulun.Sucu.Ne.3.Rip.By.ASiKaR.avi
Format : AVI
Format/Info : Audio Video Interleave
File size : 1.07 GiB
Duration : 1h 24mn
Overall bit rate : 1 814 Kbps
Writing application : VirtualDubMod 1.5.4.1 (build 2178/release)
Writing library : VirtualDubMod build 2178/release

Video
ID : 0
Format : MPEG-4 Visual
Format profile : Advanced Simple@L5
Format settings, BVOP : Yes
Format settings, QPel : No
Format settings, GMC : No warppoints
Format settings, Matrix : Custom
Codec ID : XVID
Codec ID/Hint : XviD
Duration : 1h 24mn
Bit rate : 1 551 Kbps
Width : 720 pixels
Height : 544 pixels
Display aspect ratio : 4:3
Frame rate : 25.000 fps
Color space : YUV
Chroma subsampling : 4:2:0
Bit depth : 8 bits
Scan type : Progressive
Bits/(Pixel*Frame) : 0.158
Stream size : 940 MiB (85%)
Writing library : XviD 1.2.1 (UTC 2008-12-04)

Audio
ID : 1
Format : MPEG Audio
Format version : Version 1
Format profile : Layer 2
Codec ID : 50
Duration : 1h 24mn
Bit rate mode : Constant
Bit rate : 256 Kbps
Channel(s) : 2 channels
Sampling rate : 48.0 KHz
Stream size : 155 MiB (14%)
Alignment : Aligned on interleaves
Interleave, duration : 80 ms (2.00 video frames)
Interleave, preload duration : 504 ms
Korax isimli Üye şimdilik offline konumundadır   Alıntı ile Cevapla
Sponsored Links
Cevapla

Bookmarks


Konuyu Toplam 1 Üye okuyor. (0 Kayıtlı üye ve 1 Misafir)
 
Seçenekler
Stil

Yetkileriniz
Sizin Yeni Konu Acma Yetkiniz var yok
Sizin Konu Yanıtlama Yetkiniz var
You may not post attachments
You may not edit your posts

BB code is Açık
Smileler Açık
[IMG] Kodları Açık
HTML-KodlarıKapalı

Gitmek istediğiniz klasörü seçiniz

Benzer Konular
Konu Konuyu Başlatan Forum Cevaplar Son Mesaj
Fatmagül´ün Sucu ne? 04.Bölüm (07.10.2010) HF + FS + Tek Link Korax Fatmagül,ün Suçu Ne 0 10-29-2010 20:32
Fatmagül´ün Sucu ne? 05.Bölüm (14.10.2010) HF + Fs + Tek Link Korax Fatmagül,ün Suçu Ne 0 10-29-2010 20:30
Fatmagül ün Sucu ne? 07.Bölüm (28.10.2010) HF + Fs + Tek Link Korax Fatmagül,ün Suçu Ne 0 10-29-2010 20:29
Çocuklar Duymasın Bölüm 13 ( 1,07 Gb 256 Kbps 720*544 ) [ Rip Korax Çocuklar Duymasın 0 10-29-2010 18:23
Çakıl Taşları Bölüm 10 – Bölüm 11 Fragman (1,07 Gb 384 Kbps 720*544) [Rip By ASiKaR] Korax Çakıl taşları 0 10-29-2010 17:46


Şu Anki Saat: 21:29


İçerik sağlayıcı paylaşım sitelerinden biri olan Bilqi.com Forum Adresimizde T.C.K 20.ci Madde ve 5651 Sayılı Kanun'un 4.cü maddesinin (2).ci fıkrasına göre TÜM ÜYELERİMİZ yaptıkları paylaşımlardan sorumludur. bilqi.com hakkında yapılacak tüm hukuksal Şikayetler doganinternet@hotmail.com ve streetken27@gmail.com dan iletişime geçilmesi halinde ilgili kanunlar ve yönetmelikler çerçevesinde en geç 1 (Bir) Hafta içerisinde bilqi.com yönetimi olarak tarafımızdan gereken işlemler yapılacak ve size dönüş yapacaktır.
Powered by vBulletin® Version 3.8.4
Copyright ©2000 - 2017, Jelsoft Enterprises Ltd.
Search Engine Optimisation provided by DragonByte SEO v2.0.36 (Lite) - vBulletin Mods & Addons Copyright © 2017 DragonByte Technologies Ltd.

Android Rom

Android Oyunlar

Android samsung htc

Samsung Htc

Nokia Windows